Óscar Jaenada | Helpshift | MessengerOfficiële Facebook chat-app voor Windows Phone
extratorrent - A Fan Made Alternative Login   |   Register
Important Information
Registrations are open now
-------------------------------------

Please click here to register with Extratorrent2 to recieve latest updates, add bookmarks and to post comments.

Friends
Friends

1) ProxyFix

Extratorrent2 > Categories > Anime > [Prof] Mobile Suit Gundam 00 S2 (1080p x265 HEVC 10bit AAC Eng Dub) torrent


Browse Anime torrents

[Prof] Mobile Suit Gundam 00 S2 (1080p x265 HEVC 10bit AAC Eng Dub) torrent


Download torrent: Download [Prof] Mobile Suit Gundam 00 S2 (1080p x265 HEVC 10bit AAC Eng Dub) torrent Magnet link Bookmark Torrent: [Prof] Mobile Suit Gundam 00 S2 (1080p x265 HEVC 10bit AAC Eng Dub)   [Prof] Mobile Suit Gundam 00 S2 (1080p x265 HEVC 10bit AAC Eng Dub) torrent
Info hash: 59C99ABF72E21138280C2AAE62A69D2EFE8CA40F
Category: Categories > Anime
Trackers:
View all torrent trackers >
Health:
 seeds: 1 ,  leechers: 3 |  Update >
Torrent language: English English
Total Size: 12.1 GB
Files List:
25    View torrent files >
Uploader:
Prof
Torrent added: August 26, 2018, 5:30 pm
Users rating: ---, not rated. please login to rate.

Download [Prof] Mobile Suit Gundam 00 S2 (1080p x265 HEVC 10bit AAC Eng Dub) torrent



Torrent Description

Format : Matroska
Format version : Version 4 / Version 2
File size : 508 MiB
Duration : 24 min 16 s
Overall bit rate : 2 927 kb/s
Movie name : Gundam_00_S2_BD1
Encoded date : UTC 2018-08-19 19:57:43
Writing application : mkvmerge v9.6.0 ('Slave To Your Mind') 64bit
Writing library : libebml v1.3.4 + libmatroska v1.4.5

Video
ID : 1
Format : HEVC
Format/Info : High Efficiency Video Coding
Format profile : Main @Main
Codec ID : V_MPEGH/ISO/HEVC
Duration : 24 min 16 s
Bit rate : 2 789 kb/s
Width : 1 920 pixels
Height : 1 080 pixels
Display aspect ratio : 16:9
Frame rate mode : Constant
Frame rate : 23.976 (24000/1001) FPS
Color space : YUV
Chroma subsampling : 4:2:0
Bit depth : 10 bits
Bits/(Pixel*Frame) : 0.056
Stream size : 484 MiB (95%)
Writing library : x265 2.1+69-c97c64ab8b8e:[Windows][GCC 6.2.0][64 bit] 10bit
Encoding settings : cpuid=1173503 / frame-threads=2 / numa-pools=4 / wpp / no-pmode / no-pme / no-psnr / no-ssim / log-level=2 / input-csp=1 / input-res=1920x1080 / interlace=0 / total-frames=34912 / level-idc=0 / high-tier=1 / uhd-bd=0 / ref=4 / no-allow-non-conformance / no-repeat-headers / annexb / no-aud / no-hrd / info / hash=0 / no-temporal-layers / open-gop / min-keyint=23 / keyint=250 / bframes=4 / b-adapt=2 / b-pyramid / bframe-bias=0 / rc-lookahead=25 / lookahead-slices=4 / scenecut=40 / no-intra-refresh / ctu=64 / min-cu-size=8 / rect / no-amp / max-tu-size=32 / tu-inter-depth=1 / tu-intra-depth=1 / limit-tu=0 / rdoq-level=2 / signhide / no-tskip / nr-intra=0 / nr-inter=0 / no-constrained-intra / strong-intra-smoothing / max-merge=3 / limit-refs=3 / limit-modes / me=3 / subme=3 / merange=57 / temporal-mvp / weightp / no-weightb / no-analyze-src-pics / deblock=0:0 / sao / no-sao-non-deblock / rd=4 / no-early-skip / rskip / no-fast-intra / no-tskip-fast / no-cu-lossless / no-b-intra / rdpenalty=0 / psy-rd=2.00 / psy-rdoq=1.00 / no-rd-refine / analysis-mode=0 / no-lossless / cbqpoffs=0 / crqpoffs=0 / rc=crf / crf=19.0 / qcomp=0.60 / qpstep=4 / stats-write=0 / stats-read=0 / ipratio=1.40 / pbratio=1.30 / aq-mode=1 / aq-strength=1.00 / cutree / zone-count=0 / no-strict-cbr / qg-size=32 / no-rc-grain / qpmax=69 / qpmin=0 / sar=0 / overscan=0 / videoformat=5 / range=0 / colorprim=2 / transfer=2 / colormatrix=2 / chromaloc=0 / display-window=0 / max-cll=0,0 / min-luma=0 / max-luma=1023 / log2-max-poc-lsb=8 / vui-timing-info / vui-hrd-info / slices=1 / opt-qp-pps / opt-ref-list-length-pps / no-multi-pass-opt-rps / scenecut-bias=0.05
Default : Yes
Forced : No

Audio
ID : 2
Format : AAC
Format/Info : Advanced Audio Codec
Format profile : LC
Codec ID : A_AAC-2
Duration : 24 min 16 s
Bit rate : 96.0 kb/s
Channel(s) : 2 channels
Channel positions : Front: L R
Sampling rate : 48.0 kHz
Frame rate : 46.875 FPS (1024 SPF)
Compression mode : Lossy
Delay relative to video : 9 ms
Stream size : 16.3 MiB (3%)
Language : English
Default : No
Forced : No

Text #1
ID : 3
Format : PGS
Muxing mode : zlib
Codec ID : S_HDMV/PGS
Codec ID/Info : Picture based subtitle format used on BDs/HD-DVDs
Duration : 22 min 3 s
Bit rate : 2 128 b/s
Count of elements : 42
Stream size : 344 KiB (0%)
Language : English
Default : No
Forced : No

Text #2
ID : 4
Format : PGS
Muxing mode : zlib
Codec ID : S_HDMV/PGS
Codec ID/Info : Picture based subtitle format used on BDs/HD-DVDs
Duration : 22 min 59 s
Bit rate : 13.3 kb/s
Count of elements : 606
Stream size : 2.18 MiB (0%)
Language : English
Default : No
Forced : No

Text #3
ID : 5
Format : PGS
Muxing mode : zlib
Codec ID : S_HDMV/PGS
Codec ID/Info : Picture based subtitle format used on BDs/HD-DVDs
Duration : 24 min 11 s
Bit rate : 27.2 kb/s
Count of elements : 1080
Stream size : 4.70 MiB (1%)
Language : English
Default : No
Forced : No

Menu
00:00:00.000 : en:Chapter 01
00:02:11.256 : en:Chapter 02
00:11:49.041 : en:Chapter 03
00:21:03.595 : en:Chapter 04
00:22:34.102 : en:Chapter 05
00:23:59.980 : en:Chapter 06


Download [Prof] Mobile Suit Gundam 00 S2 (1080p x265 HEVC 10bit AAC Eng Dub) torrent


Related Torrents


Comments   (please login to add your comment!)

phoenix marie     twistyshard rebecca linares     ariella ferrera     the lord of the rings 4     gangbang of riley reid     rmk     s08e04     gods egypt     school russian     brawl in cell block     bangbus cuban     deep throat this 20     julie 2004     720p     tamil hdrip     health     pcs     imo     with huge tits and a juicy ass     adriana chechik vixen     avengers war ita     black gape     wallpaper     twisted taboo tales     


Home - Browse Torrents

Made with love by an Extratorrent Fan!