Scarica APK | Willkommen in Gravity Falls | InstaMessage - Instagram Chat
extratorrent - A Fan Made Alternative Login   |   Register
Important Information
Registrations are open now
-------------------------------------

Please click here to register with Extratorrent2 to recieve latest updates, add bookmarks and to post comments.

Friends
Friends

1) ProxyFix

Extratorrent2 > Categories > Movies > Hereditary 2018 1080p BluRay x264 DTS [MW] torrent


Browse Movies torrents

Hereditary 2018 1080p BluRay x264 DTS [MW] torrent


Download torrent: Download Hereditary 2018 1080p BluRay x264 DTS [MW] torrent Magnet link Bookmark Torrent: Hereditary 2018 1080p BluRay x264 DTS [MW]   Hereditary 2018 1080p BluRay x264 DTS [MW] torrent
Info hash: 563858EB634B2B39F9B8ADF7CC9438CF1C5E6B5F
Category: Categories > Movies
Trackers:
View all torrent trackers >
Health:
 seeds: 31 ,  leechers: 11 |  Update >
Torrent language: English English
Total Size: 3.3 GB
Files List:
1    View torrent files >
Uploader:
moviezworldz
Torrent added: September 2, 2018, 5:20 pm
Tags: Drama, Horror, Mystery
Users rating: ---, not rated. please login to rate.

Download Hereditary 2018 1080p BluRay x264 DTS [MW] torrent



Torrent Description





General
Format : Matroska
Format version : Version 4 / Version 2
File size : 3.31 GiB
Duration : 2 h 7 min
Overall bit rate : 3 719 kb/s

Video
ID : 1
Format : AVC
Format/Info : Advanced Video Codec
Format profile :
Format settings : CABAC / 4 Ref Frames
Format settings, CABAC : Yes
Format settings, RefFrames : 4 frames
Codec ID : V_MPEG4/ISO/AVC
Duration : 2 h 7 min
Bit rate : 3 000 kb/s
Width : 1 920 pixels
Height : 960 pixels
Display aspect ratio : 2.000
Frame rate mode : Constant
Frame rate : 23.976 (24000/1001) FPS
Color space : YUV
Chroma subsampling : 4:2:0
Bit depth : 8 bits
Scan type : Progressive
Bits/(Pixel*Frame) : 0.068
Stream size : 2.63 GiB (79%)
Writing library : x264 core 155 r2901 7d0ff22
Default : Yes
Forced : No

Audio
ID : 2
Format : DTS
Format/Info : Digital Theater Systems
Codec ID : A_DTS
Duration : 2 h 7 min
Bit rate mode : Constant
Bit rate : 756 kb/s
Channel(s) : 6 channels
Channel positions : Front: L C R, Side: L R, LFE
Sampling rate : 48.0 kHz
Frame rate : 93.750 FPS (512 SPF)
Bit depth : 16 bits
Compression mode : Lossy
Stream size : 689 MiB (20%)
Language : English
Default : Yes
Forced : No

Text
ID : 3
Format : VobSub
Muxing mode : zlib
Codec ID : S_VOBSUB
Codec ID/Info : Picture based subtitle format used on DVDs
Duration : 2 h 0 min
Bit rate : 4 731 b/s
Count of elements : 1252
Stream size : 4.06 MiB (0%)
Language : English
Default : Yes
Forced : No


Click To Enlarge Image








Download Hereditary 2018 1080p BluRay x264 DTS [MW] torrent


Related Torrents


Comments   (please login to add your comment!)

college summer break     fukrey     windows 10 enterprise x64 redstone 4     bleak night     the study swap     xxx parody     a bigger splash     1769     legalporno monika wild     mulk     great robbery     ebba     haq se     zak     fum     house md     slut     hindi     titty sundaes     slutty girls love rocco 15     rebel rebel     matt     shameless us season 7 complete 720p hdtv     october 1 2014     


Home - Browse Torrents

Made with love by an Extratorrent Fan!