Eps4 In the Dark - Season 1 (2017) | Strong S01E10 WEB x264-CRiMSON[eztv] mkv | Watch Movie
extratorrent - A Fan Made Alternative Login   |   Register
Important Information
Registrations are open now
-------------------------------------

Please click here to register with Extratorrent2 to recieve latest updates, add bookmarks and to post comments.

Friends
Friends

1) ProxyFix

Extratorrent2 > Categories > Movies > League Of Gods 2016 x264 720p Esub BluRay Dual Audio English Hindi GOPISAHI torrent


Browse Movies torrents

League Of Gods 2016 x264 720p Esub BluRay Dual Audio English Hindi GOPISAHI torrent


Download torrent: Download League Of Gods 2016 x264 720p Esub BluRay Dual Audio English Hindi GOPISAHI torrent Magnet link Bookmark Torrent: League Of Gods 2016 x264 720p Esub BluRay Dual Audio English Hindi GOPISAHI   League Of Gods 2016 x264 720p Esub BluRay Dual Audio English Hindi GOPISAHI torrent
Info hash: 786D34E8C544CDDC7E92A6B8E8FBA53468DEF061
Category: Categories > Movies
Trackers:
View all torrent trackers >
Health:
 seeds: 16 ,  leechers: 7 |  Update >
Torrent language: English English
Total Size: 696.9 MB
Files List:
1    View torrent files >
Uploader:
PENDUDESI
Torrent added: September 2, 2018, 5:14 pm
Users rating: ---, not rated. please login to rate.

Download League Of Gods 2016 x264 720p Esub BluRay Dual Audio English Hindi GOPISAHI torrent



Torrent Description

http://www.gopisahi.pw/

Format : Matroska
Format version : Version 4 / Version 2
File size : 697 MiB
Duration : 1 h 49 min
Overall bit rate : 891 kb/s
Movie name : League Of Gods 2016 GOPISAHI

Video
Format : AVC
Format/Info : Advanced Video Codec
Format profile :
Codec ID : V_MPEG4/ISO/AVC
Duration : 1 h 48 min
Bit rate : 699 kb/s
Width : 1 280 pixels
Height : 536 pixels
Display aspect ratio : 2.40:1
Frame rate mode : Constant
Frame rate : 24.000 FPS
Color space : YUV
Chroma subsampling : 4:2:0
Bit depth : 8 bits
Scan type : Progressive
Bits/(Pixel*Frame) : 0.042
Stream size : 544 MiB (78%)
Title : GOPISAHI
Writing library : x264 core 155 r2901 7d0ff22

Audio #1
Format : AAC
Format/Info : Advanced Audio Codec
Duration : 1 h 49 min
Bit rate : 96.0 kb/s
Channel(s) : 2 channels
Channel positions : Front: L R
Sampling rate : 48.0 kHz
Frame rate : 46.875 FPS (1024 SPF)
Compression mode : Lossy
Delay relative to video : -21 ms
Stream size : 75.1 MiB (11%)
Title : GOPISAHI
Language : Hindi

Audio #2
Format : AAC
Format/Info : Advanced Audio Codec
Duration : 1 h 49 min
Bit rate : 96.0 kb/s
Channel(s) : 2 channels
Channel positions : Front: L R
Sampling rate : 48.0 kHz
Frame rate : 46.875 FPS (1024 SPF)
Compression mode : Lossy
Delay relative to video : -21 ms
Stream size : 75.0 MiB (11%)
Title : GOPISAHI
Language : English

Text
Language : English

Xcs3u3FM0_w/W4OCBxVOwsI/AAAAAAAAcqQ/b4MYdCegxjQ0QGTq7mmqlKm1G_8tIBxwgCLcBGAs/s1600/League%2BOf%2BGods%2B2016%2Bx264%2B720p%2BEsub%2BBluRay%2BDual%2BAudio%2BEnglish%2BHindi%2BGOPISAHI.mkv_snapshot_00.26.14.jpg[/img]


Download League Of Gods 2016 x264 720p Esub BluRay Dual Audio English Hindi GOPISAHI torrent


Related Torrents


Comments   (please login to add your comment!)

2011 3d     punjab 2018     scary     kazumi takada     blackedraw     girls play     doggystyle     obedient     gog     kta     aac     desi xxx     jungle subs     gio559     resident evil 1080p     revolution 2012 s01e01     step sister caught povd     18 desire 2017     parfume     tushy 1080p     fanny     foxm     hindi 2018 xxx     manyvids ezra     


Home - Browse Torrents

Made with love by an Extratorrent Fan!