Uploading123 | Astrology Horoscopes ProOroscopo, numerologia e compatibilità tra i segni | Read More ...
extratorrent - A Fan Made Alternative Login   |   Register
Important Information
Registrations are open now
-------------------------------------

Please click here to register with Extratorrent2 to recieve latest updates, add bookmarks and to post comments.

Friends
Friends

1) ProxyFix

Extratorrent2 > Categories > Movies > League of Gods 2016 720p BluRay x264 Dual Audio [Hindi 2.0 - Chinese 2.0] ESub [MW] torrent


Browse Movies torrents

League of Gods 2016 720p BluRay x264 Dual Audio [Hindi 2.0 - Chinese 2.0] ESub [MW] torrent


Download torrent: Download League of Gods 2016 720p BluRay x264 Dual Audio [Hindi 2.0 - Chinese 2.0] ESub [MW] torrent Magnet link Bookmark Torrent: League of Gods 2016 720p BluRay x264 Dual Audio [Hindi 2.0 - Chinese 2.0] ESub [MW]   League of Gods 2016 720p BluRay x264 Dual Audio [Hindi 2.0 - Chinese 2.0] ESub [MW] torrent
Info hash: 1C6538EE6034791A16392A462404F3FFC65C3354
Category: Categories > Movies
Trackers:
View all torrent trackers >
Health:
 seeds: 72 ,  leechers: 12 |  Update >
Torrent language: Hindi Hindi
Total Size: 990.2 MB
Files List:
1    View torrent files >
Uploader:
moviezworldz
Torrent added: September 2, 2018, 5:13 pm
Tags: Action, Fantasy
Users rating: ---, not rated. please login to rate.

Download League of Gods 2016 720p BluRay x264 Dual Audio [Hindi 2.0 - Chinese 2.0] ESub [MW] torrent



Torrent Description





General
Format : Matroska
Format version : Version 4 / Version 2
File size : 990 MiB
Duration : 1 h 49 min
Overall bit rate : 1 266 kb/s

Video
ID : 1
Format : AVC
Format/Info : Advanced Video Codec
Format profile :
Format settings : CABAC / 5 Ref Frames
Format settings, CABAC : Yes
Format settings, RefFrames : 5 frames
Codec ID : V_MPEG4/ISO/AVC
Duration : 1 h 48 min
Bit rate : 950 kb/s
Width : 1 280 pixels
Height : 538 pixels
Display aspect ratio : 2.40:1
Frame rate mode : Constant
Frame rate : 24.000 FPS
Color space : YUV
Chroma subsampling : 4:2:0
Bit depth : 8 bits
Scan type : Progressive
Bits/(Pixel*Frame) : 0.057
Stream size : 740 MiB (75%)
Writing library : x264 core 148 r2638 7599210
Default : Yes
Forced : No

Audio #1
ID : 2
Format : AAC
Format/Info : Advanced Audio Codec
Format profile : LC
Codec ID : A_AAC-2
Duration : 1 h 49 min
Bit rate : 224 kb/s
Channel(s) : 2 channels
Channel positions : Front: L R
Sampling rate : 48.0 kHz
Frame rate : 46.875 FPS (1024 SPF)
Compression mode : Lossy
Stream size : 175 MiB (18%)
Language : Hindi
Default : Yes
Forced : No

Audio #2
ID : 3
Format : AAC
Format/Info : Advanced Audio Codec
Format profile : LC
Codec ID : A_AAC-2
Duration : 1 h 48 min
Bit rate : 93.4 kb/s
Channel(s) : 2 channels
Channel positions : Front: L R
Sampling rate : 48.0 kHz
Frame rate : 46.875 FPS (1024 SPF)
Compression mode : Lossy
Stream size : 72.8 MiB (7%)
Language : Chinese
Default : No
Forced : No

Text
ID : 4
Format : UTF-8
Codec ID : S_TEXT/UTF8
Codec ID/Info : UTF-8 Plain Text
Duration : 1 h 39 min
Bit rate : 35 b/s
Count of elements : 1132
Stream size : 25.9 KiB (0%)
Default : Yes
Forced : No




Click To Enlarge Image









Download League of Gods 2016 720p BluRay x264 Dual Audio [Hindi 2.0 - Chinese 2.0] ESub [MW] torrent


Related Torrents


Comments   (please login to add your comment!)


Home - Browse Torrents

Made with love by an Extratorrent Fan!