Doujin Work | Piraten unter dem Doppelmond | The Hollow Crown
extratorrent - A Fan Made Alternative Login   |   Register
Important Information
Registrations are open now
-------------------------------------

Please click here to register with Extratorrent2 to recieve latest updates, add bookmarks and to post comments.

Friends
Friends

1) ProxyFix

Extratorrent2 > Categories > Movies > League Of Gods (2016) 1080p BluRay x264 Dual Audio [Hindi DD2.0 - Chinese DD5.1] - Esub ~ Ranvijay torrent


Browse Movies torrents

League Of Gods (2016) 1080p BluRay x264 Dual Audio [Hindi DD2.0 - Chinese DD5.1] - Esub ~ Ranvijay torrent


Download torrent: Download League Of Gods (2016) 1080p BluRay x264 Dual Audio [Hindi DD2.0 - Chinese DD5.1] - Esub ~ Ranvijay torrent Magnet link Bookmark Torrent: League Of Gods (2016) 1080p BluRay x264 Dual Audio [Hindi DD2.0 - Chinese DD5.1] - Esub ~ Ranvijay   League Of Gods (2016) 1080p BluRay x264 Dual Audio [Hindi DD2.0 - Chinese DD5.1] - Esub ~ Ranvijay torrent
Info hash: E16FF5240094A9C3A7904D4FDBE110F6CB00E505
Category: Categories > Movies
Trackers:
View all torrent trackers >
Health:
 seeds: 2 ,  leechers: 1 |  Update >
Torrent language: Hindi Hindi
Total Size: 3.8 GB
Files List:
3    View torrent files >
Uploader:
TheFighter
Torrent added: September 2, 2018, 5:12 pm
Tags: Ranvijay, ShareSpark
Users rating: ---, not rated. please login to rate.

Download League Of Gods (2016) 1080p BluRay x264 Dual Audio [Hindi DD2.0 - Chinese DD5.1] - Esub ~ Ranvijay torrent



Torrent Description





Click Here To Join My FaceBook Group

League Of Gods (2016) 1080p BluRay x264 Dual Audio [Hindi DD2.0 - Chinese DD5.1] - Esub ~ Ranvijay



Thanks To Dr Star For Hindi Audio


Buy RDP Online



Format : Matroska
Format version : Version 4 / Version 2
File size : 3.77 GiB
Duration : 1 h 49 min
Overall bit rate : 4 935 kb/s
Movie name : League Of Gods (2016) 1080p BluRay x264 Dual Audio [Hindi DD2.0 - Chinese DD5.1] - Esub ~ Ranvijay

Video
ID : 1
Format : AVC
Format/Info : Advanced Video Codec
Duration : 1 h 48 min
Bit rate : 4 500 kb/s
Width : 1 920 pixels
Height : 804 pixels
Display aspect ratio : 2.40:1
Frame rate mode : Constant
Frame rate : 24.000 FPS
Color space : YUV
Chroma subsampling : 4:2:0
Bit depth : 8 bits
Scan type : Progressive
Bits/(Pixel*Frame) : 0.121
Stream size : 3.42 GiB (91%)
Title : ~Ranvijay~

Audio #1
ID : 2
Format : AC-3
Format/Info : Audio Coding 3
Codec ID : A_AC3
Duration : 1 h 49 min
Bit rate mode : Constant
Bit rate : 224 kb/s
Channel(s) : 2 channels
Channel positions : Front: L R
Sampling rate : 48.0 kHz
Frame rate : 31.250 FPS (1536 SPF)
Bit depth : 16 bits
Compression mode : Lossy
Stream size : 175 MiB (5%)
Title : ~Ranvijay~
Language : Hindi
Service kind : Complete Main
Default : Yes
Forced : Yes

Audio #2
ID : 3
Format : AC-3
Format/Info : Audio Coding 3
Codec ID : A_AC3
Duration : 1 h 48 min
Bit rate mode : Constant
Bit rate : 224 kb/s
Channel(s) : 6 channels
Channel positions : Front: L C R, Side: L R, LFE
Sampling rate : 48.0 kHz
Frame rate : 31.250 FPS (1536 SPF)
Bit depth : 16 bits
Compression mode : Lossy
Stream size : 175 MiB (5%)
Title : ~Ranvijay~
Language : Chinese
Service kind : Complete Main
Default : No
Forced : No

Text
ID : 4
Format : UTF-8
Codec ID : S_TEXT/UTF8
Codec ID/Info : UTF-8 Plain Text
Duration : 1 h 39 min
Bit rate : 35 b/s
Count of elements : 1130
Stream size : 25.9 KiB (0%)
Title : ~Ranvijay~
Language : English
Default : Yes
Forced : Yes



















Download League Of Gods (2016) 1080p BluRay x264 Dual Audio [Hindi DD2.0 - Chinese DD5.1] - Esub ~ Ranvijay torrent


Related Torrents


Comments   (please login to add your comment!)

sabs j     the ice     hagar     aor     swingers club     lock     1710     chaika     sexy 18     alone     teenfidelity alex blake     barbie     dylan dog dead of night 2011     a goo fucking daisy stone     real tits xxx     hdrip ac3 evo 2017     game of thrones season     laura layne     howe mr hockey     forbidden sex 2017     daler mehndi     dongs     sz1591     falcon rising dual audio     


Home - Browse Torrents

Made with love by an Extratorrent Fan!